Torrent Details For "Red 2 2013 720p BluRay x264 Dual Audio [Hindi 2 0 - English 2 0] ESub [MW]"

Red 2 2013 720p BluRay x264 Dual Audio [Hindi 2 0 - English 2 0] ESub [MW]

To download this torrent, you need a BitTorrent client: Vuze or BTGuard
Download this torrent
Download using Magnet Link

Health:
Seeds: 41
Leechers: 351
Completed:
Last Checked: 05-11-2018 09:00:52

Uploader Reputation points : 5252
External: Torrent



BTGuard - BitTorrent Anonymously


Write a Review for the Uploader:   20   Say Thanks with one good review:


Details
Name:Red 2 2013 720p BluRay x264 Dual Audio [Hindi 2 0 - English 2 0] ESub [MW]
Description:
 
 General
Format : Matroska
Format version : Version 4 / Version 2
File size : 973 MiB
Duration : 1 h 55 min
Overall bit rate : 1 175 kb/s
 Video
ID : 1
Format : AVC
Format/Info : Advanced Video Codec
Format profile : [email protected]  Format settings : CABAC / 4 Ref Frames
Format settings, CABAC : Yes
Format settings, RefFrames : 4 frames
Codec ID : V_MPEG4/ISO/AVC
Duration : 1 h 55 min
Bit rate : 950 kb/s
Width : 1 280 pixels
Height : 536 pixels
Display aspect ratio : 2.40:1
Frame rate mode : Constant
Frame rate : 23.976 (24000/1001) FPS
Original frame rate : 23.976 (23976/1000) FPS
Color space : YUV
Chroma subsampling : 4:2:0
Bit depth : 8 bits
Scan type : Progressive
Bits/(Pixel*Frame) : 0.058
Stream size : 787 MiB (81%)
Writing library : x264 core 132 r2 76a5c3a
Default : Yes
Forced : No
 Audio #1
ID : 2
Format : AAC
Format/Info : Advanced Audio Codec
Format profile : LC
Codec ID : A_AAC-2
Duration : 1 h 55 min
Bit rate : 128 kb/s
Channel(s) : 2 channels
Channel positions : Front: L R
Sampling rate : 48.0 kHz
Frame rate : 46.875 FPS (1024 SPF)
Compression mode : Lossy
Stream size : 106 MiB (11%)
Language : Hindi
Default : Yes
Forced : No
 Audio #2
ID : 3
Format : AAC
Format/Info : Advanced Audio Codec
Format profile : LC
Codec ID : A_AAC-2
Duration : 1 h 55 min
Bit rate : 93.7 kb/s
Channel(s) : 2 channels
Channel positions : Front: L R
Sampling rate : 48.0 kHz
Frame rate : 46.875 FPS (1024 SPF)
Compression mode : Lossy
Stream size : 77.6 MiB (8%)
Language : English
Default : No
Forced : No
 Text
ID : 4
Format : UTF-8
Codec ID : S_TEXT/UTF8
Codec ID/Info : UTF-8 Plain Text
Duration : 1 h 45 min
Bit rate : 53 b/s
Count of elements : 1381
Stream size : 41.3 KiB (0%)
Default : Yes
Forced : No
 

 http://pichub.site/image/VO9Zd               http://pichub.site/image/VOTI9               http://pichub.site/image/VOFAu                  http://pichub.site/image/VOQ6R               http://pichub.site/image/VOb4s                  http://pichub.site/image/VOeCB
 
YouTube Video:
Category:Movies
Language:English  English
Total Size:973.04 MB
Info Hash:0BE4E769414EEDA8424BF44C92F34D792FB85D4B
Added By:MovieFreak Verified UploaderMovie Pirate
Date Added:05-11-2018 08:57:18
Torrent Status:Torrent Verified


Ratings:Not Yet Rated (Log in to rate it)


Tracker:
udp://tracker.coppersurfer.tk:6969/announce

This Torrent also has backup trackers
URLSeedersLeechersCompleted
udp://tracker.coppersurfer.tk:6969/announce5372
udp://tracker.pirateparty.gr:6969/announce5372
udp://tracker.coppersurfer.tk:6969/announce5372
udp://tracker.tiny-vps.com:6969/announce4412
udp://9.rarbg.me:2740/announce3330
udp://9.rarbg.to:2790/announce3330
udp://public.popcorn-tracker.org:6969/announce3310
udp://tracker.vanitycore.co:6969/announce3340
udp://tracker.opentrackr.org:1337/announce4310
udp://open.stealth.si:80/announce6371


File List: 



Warning! Do not Download Torrents Without a VPN!
Your IP Address is .   Location is
Your Internet Provider and Government can track your torrent Activity! Hide your IP ADDRESS with a VPN!
We strongly recommend using SpyOFF VPN to anonymize your Torrenting.It's FREE!
START YOUR FREE TRIAL NOW!


Comments
No comments still posted