Torrent Details For "Snowpiercer 2013 720p BluRay x264 Dual Audio [Hindi 2 0 - English 2 0] ESub [MW]"

Snowpiercer 2013 720p BluRay x264 Dual Audio [Hindi 2 0 - English 2 0] ESub [MW]

To download this torrent, you need a BitTorrent client: Vuze or BTGuard
Download this torrent
Download using Magnet Link

Health:
Seeds: 98
Leechers: 0
Completed: 13,777 
Last Checked: 12-12-2018 03:33:07

Uploader Reputation points : 5252
External: Torrent



BTGuard - BitTorrent Anonymously


Write a Review for the Uploader:   20   Say Thanks with one good review:


Details
Name:Snowpiercer 2013 720p BluRay x264 Dual Audio [Hindi 2 0 - English 2 0] ESub [MW]
Description:
 
 General
Format : Matroska
Format version : Version 4 / Version 2
File size : 1.01 GiB
Duration : 2 h 6 min
Overall bit rate : 1 146 kb/s
 Video
ID : 1
Format : AVC
Format/Info : Advanced Video Codec
Format profile : [email protected]  Format settings : CABAC / 4 Ref Frames
Format settings, CABAC : Yes
Format settings, RefFrames : 4 frames
Codec ID : V_MPEG4/ISO/AVC
Duration : 2 h 6 min
Bit rate : 921 kb/s
Width : 1 280 pixels
Height : 690 pixels
Display aspect ratio : 1.85:1
Frame rate mode : Constant
Frame rate : 23.976 (24000/1001) FPS
Original frame rate : 23.976 (23976/1000) FPS
Color space : YUV
Chroma subsampling : 4:2:0
Bit depth : 8 bits
Scan type : Progressive
Bits/(Pixel*Frame) : 0.043
Stream size : 831 MiB (80%)
Writing library : x264 core 135 r2 f0c1c53
Default : Yes
Forced : No
 Audio #1
ID : 2
Format : AAC
Format/Info : Advanced Audio Codec
Format profile : LC
Codec ID : A_AAC-2
Duration : 2 h 6 min
Bit rate : 128 kb/s
Channel(s) : 2 channels
Channel positions : Front: L R
Sampling rate : 48.0 kHz
Frame rate : 46.875 FPS (1024 SPF)
Compression mode : Lossy
Stream size : 116 MiB (11%)
Language : Hindi
Default : Yes
Forced : No
 Audio #2
ID : 3
Format : AAC
Format/Info : Advanced Audio Codec
Format profile : LC
Codec ID : A_AAC-2
Duration : 2 h 6 min
Bit rate : 93.8 kb/s
Channel(s) : 2 channels
Channel positions : Front: L R
Sampling rate : 48.0 kHz
Frame rate : 46.875 FPS (1024 SPF)
Compression mode : Lossy
Stream size : 84.7 MiB (8%)
Language : English
Default : No
Forced : No
 Text
ID : 4
Format : UTF-8
Codec ID : S_TEXT/UTF8
Codec ID/Info : UTF-8 Plain Text
Duration : 1 h 57 min
Bit rate : 37 b/s
Count of elements : 1146
Stream size : 32.0 KiB (0%)
Default : Yes
Forced : No            http://pichub.site/image/7WSHT           http://pichub.site/image/7WEDN           http://pichub.site/image/7WdmD           http://pichub.site/image/7W7nZ           http://pichub.site/image/7WkzI           http://pichub.site/image/7Ww2X  
YouTube Video:
Category:Movies
Language:English  English
Total Size:1.01 GB
Info Hash:600FE01B23F498753DB2477C939BBB72E8194B55
Added By:MovieFreak Verified UploaderMovie Pirate
Date Added:03-11-2018 07:10:31
Torrent Status:Torrent Verified


Ratings:Not Yet Rated (Log in to rate it)


Tracker:
udp://tracker.coppersurfer.tk:6969/announce

This Torrent also has backup trackers
URLSeedersLeechersCompleted
udp://tracker.coppersurfer.tk:6969/announce1402,653
udp://tracker.pirateparty.gr:6969/announce1402,653
udp://tracker.coppersurfer.tk:6969/announce1402,653
udp://tracker.tiny-vps.com:6969/announce14015
udp://9.rarbg.me:2740/announce901,880
udp://9.rarbg.to:2790/announce901,880
udp://public.popcorn-tracker.org:6969/announce000
udp://tracker.vanitycore.co:6969/announce000
udp://tracker.opentrackr.org:1337/announce1301,262
udp://open.stealth.si:80/announce110781


File List: 



Warning! Do not Download Torrents Without a VPN!
Your IP Address is .   Location is
Your Internet Provider and Government can track your torrent Activity! Hide your IP ADDRESS with a VPN!
We strongly recommend using SpyOFF VPN to anonymize your Torrenting.It's FREE!
START YOUR FREE TRIAL NOW!


Comments
No comments still posted